Subcategories

Psallentes - Triptycha: Listening to the Ghent Altarpiece - Plainchant Pro Series Vol. 6 (2016) {Le Bricoleur LBCD/08}

Posted By: ruskaval
Psallentes - Triptycha: Listening to the Ghent Altarpiece - Plainchant Pro Series Vol. 6 (2016) {Le Bricoleur LBCD/08}

Psallentes - Triptycha: Listening to the Ghent Altarpiece - Plainchant Pro Series Vol. 6 (2016) {Le Bricoleur LBCD/08}
EAC rip (secure mode) | FLAC (tracks)+CUE+LOG -> 270 Mb | MP3 @320 -> 155 Mb
Full Artwork @ 300 dpi (jpg) -> 12 Mb | 5% repair rar
© 2016 Le Bricoleur | LBCD/08
Classical / Renaissance / Early Music / Sacred Works / Vocal

The angels on the Ghent Altarpiece (Van Eyck) are singing plainchant and/or polyphony. If it is plainchant, they could be responses from the period after Easter. These responses make explicit references to the book of Revelations - which makes sense because the Ghent Alterpiece is full of references to the Apocalypse. The combination of these chants with two-voices Agnus-Dei fragments from masses by Dufay, Ockeghem, Desprez and others, make for a series of small and beautiful vignettes. Triptychs.
Psallentes - Triptycha: Listening to the Ghent Altarpiece - Plainchant Pro Series Vol. 6 (2016) {Le Bricoleur LBCD/08}


INFO
More INFO


Personnel:
Psallentes (dames)
Hendrik Vanden Abeele, conductor

Psallentes - Triptycha: Listening to the Ghent Altarpiece - Plainchant Pro Series Vol. 6 (2016) {Le Bricoleur LBCD/08}


tracklist:
Josquin DESPREZ
01. Missa Gaudeamus - AGNUS DEI [9:37]
with responsorium 'Angelus Domini'

02. ANONYMOUS. Cum transisset [5:05]

Pierre De La RUE
03. Missa O Gloriosa Marghareta - AGNUS DEI [7:32]
with responsorium 'Maria Magdalene'

Josquin DESPREZ
04. Missa Malheur me bat - AGNUS DEI [12:17]
with responsorium 'Virtute magna'

Guillaume DUFAY
05. Missa Ecce ancilla Domini - AGNUS DEI [6:11]
with responsorium 'De ore prudentis'

Johannes OCKEGHEM
06. Missa Sine nomine - AGNUS DEI [6:21]
with responsorium 'Ecce vicit leo'

Adrian WILLAERT
07. Missa Christus resurgens & Missa Osculetur me - AGNUS DEI [4:31]
with responsorium 'Expurgate'

Josquin DESPREZ
08. Missa de Beata Virgine - AGNUS DEI [7:24]
with responsorium 'Isti sunt agni'

Johannes OCKEGHEM / Josquin DESPREZ
09. D'ung aultre amer - Tu solus qui facis [6:34]

Exact Audio Copy V1.1 from 23. June 2015

EAC extraction logfile from 27. June 2016, 15:39

Psallentes / Triptycha

Used drive : ATAPI iHAS324 Y Adapter: 1 ID: 1

Read mode : Secure
Utilize accurate stream : Yes
Defeat audio cache : Yes
Make use of C2 pointers : No

Read offset correction : 48
Overread into Lead-In and Lead-Out : No
Fill up missing offset samples with silence : Yes
Delete leading and trailing silent blocks : No
Null samples used in CRC calculations : Yes
Used interface : Native Win32 interface for Win NT & 2000
Gap handling : Appended to previous track

Used output format : User Defined Encoder
Selected bitrate : 896 kBit/s
Quality : High
Add ID3 tag : No
Command line compressor : F:\Program Files\Exact Audio Copy\Flac\flac.exe
Additional command line options : -8 -V -T "ARTIST=%artist%" -T "TITLE=%title%" -T "ALBUM=%albumtitle%" -T "DATE=%year%" -T "TRACKNUMBER=%tracknr%" -T "GENRE=%genre%" -T "PERFORMER=%albuminterpret%" -T "COMPOSER=%composer%" %haslyrics%–tag-from-file=LYRICS="%lyricsfile%"%haslyrics% -T "ALBUMARTIST=%albumartist%" -T "DISCNUMBER=%cdnumber%" -T "TOTALDISCS=%totalcds%" -T "TOTALTRACKS=%numtracks%" -T "COMMENT=%comment%" %source% -o %dest%


TOC of the extracted CD

Track | Start | Length | Start sector | End sector
––––––––––––––––––––––––––––-
1 | 0:00.00 | 9:37.37 | 0 | 43311
2 | 9:37.37 | 5:05.38 | 43312 | 66224
3 | 14:43.00 | 7:32.00 | 66225 | 100124
4 | 22:15.00 | 12:17.56 | 100125 | 155455
5 | 34:32.56 | 6:11.38 | 155456 | 183318
6 | 40:44.19 | 6:21.12 | 183319 | 211905
7 | 47:05.31 | 4:31.44 | 211906 | 232274
8 | 51:37.00 | 7:24.00 | 232275 | 265574
9 | 59:01.00 | 6:34.38 | 265575 | 295162


Track 1

Filename Q:\Music\LBCD08\01 - Josquin Desprez - Responsorium Angelus Domini & Agnus Dei (Missa Gaudeamus).wav

Pre-gap length 0:00:02.00

Peak level 88.7 %
Extraction speed 2.6 X
Track quality 100.0 %
Test CRC ADB055C6
Copy CRC ADB055C6
Accurately ripped (confidence 1) [A5B78B63] (AR v2)
Copy OK

Track 2

Filename Q:\Music\LBCD08\02 - Anonymous - Responsorium Cum transisset.wav

Pre-gap length 0:00:01.94

Peak level 76.7 %
Extraction speed 2.9 X
Track quality 100.0 %
Test CRC DDDD00FA
Copy CRC DDDD00FA
Accurately ripped (confidence 1) [F96ED852] (AR v2)
Copy OK

Track 3

Filename Q:\Music\LBCD08\03 - Pierre de la Rue - Responsorium Maria Magdalena & Agnus Dei (Missa Gloriosa Marghareta).wav

Pre-gap length 0:00:01.81

Peak level 96.4 %
Extraction speed 3.3 X
Track quality 100.0 %
Test CRC 3DAC48CF
Copy CRC 3DAC48CF
Accurately ripped (confidence 1) [AD03A892] (AR v2)
Copy OK

Track 4

Filename Q:\Music\LBCD08\04 - Josquin Desprez - Responsorium Virtute Magna & Agnus Dei (Missa Malheur me bat).wav

Pre-gap length 0:00:01.84

Peak level 83.2 %
Extraction speed 3.9 X
Track quality 100.0 %
Test CRC 86705F94
Copy CRC 86705F94
Accurately ripped (confidence 1) [0870DD85] (AR v2)
Copy OK

Track 5

Filename Q:\Music\LBCD08\05 - Guillaume Dufay - Responsorium De ore prudentis & Agnus Dei (Missa Ecce ancilla Domini).wav

Pre-gap length 0:00:01.84

Peak level 96.6 %
Extraction speed 3.8 X
Track quality 99.9 %
Test CRC 121611DC
Copy CRC 121611DC
Accurately ripped (confidence 1) [3052C9CA] (AR v2)
Copy OK

Track 6

Filename Q:\Music\LBCD08\06 - Johannes Ockeghem - Responsorium Ecce vivit leo & Agnus Dei (Missa sine nomine).wav

Pre-gap length 0:00:01.90

Peak level 94.5 %
Extraction speed 4.3 X
Track quality 100.0 %
Test CRC AEBF8B7E
Copy CRC AEBF8B7E
Accurately ripped (confidence 1) [BBDBE369] (AR v2)
Copy OK

Track 7

Filename Q:\Music\LBCD08\07 - Adriaan Willaert - Responsorium Expurgate & Agnus Dei (Missa Christus resurgens & Missa Osculetur me).wav

Pre-gap length 0:00:01.77

Peak level 95.5 %
Extraction speed 3.9 X
Track quality 99.9 %
Test CRC 02343A75
Copy CRC 02343A75
Accurately ripped (confidence 1) [6A1EF755] (AR v2)
Copy OK

Track 8

Filename Q:\Music\LBCD08\08 - Josquin Desprez - Responsorium Isti sunt agni & Agnus Dei (Missa Beata Virgine).wav

Pre-gap length 0:00:01.92

Peak level 93.5 %
Extraction speed 4.8 X
Track quality 100.0 %
Test CRC 0C4D9063
Copy CRC 0C4D9063
Accurately ripped (confidence 1) [E0ACE402] (AR v2)
Copy OK

Track 9

Filename Q:\Music\LBCD08\09 - Johannes Ockeghem, Josquin Desprez - D'ung aultre amer & Tu solus qui facis.wav

Pre-gap length 0:00:01.72

Peak level 85.0 %
Extraction speed 4.9 X
Track quality 100.0 %
Test CRC 96D1B8B2
Copy CRC 96D1B8B2
Accurately ripped (confidence 1) [CF744D70] (AR v2)
Copy OK


All tracks accurately ripped

No errors occurred

End of status report

–– CUETools DB Plugin V2.1.6

[CTDB TOCID: xvvvSqQDx5UPgpy0g6y1muHmqnk-] found
Submit result: xvvvSqQDx5UPgpy0g6y1muHmqnk- has been confirmed
Track | CTDB Status
1 | (1/1) Accurately ripped
2 | (1/1) Accurately ripped
3 | (1/1) Accurately ripped
4 | (1/1) Accurately ripped
5 | (1/1) Accurately ripped
6 | (1/1) Accurately ripped
7 | (1/1) Accurately ripped
8 | (1/1) Accurately ripped
9 | (1/1) Accurately ripped


==== Log checksum 63B545EFC9105F692F35D518CEAE7A472D91734593EE5D60AFF8B6D7DC0876D9 ====


Psallentes - Triptycha: Listening to the Ghent Altarpiece - Plainchant Pro Series Vol. 6 (2016) {Le Bricoleur LBCD/08}

Psallentes - Triptycha: Listening to the Ghent Altarpiece - Plainchant Pro Series Vol. 6 (2016) {Le Bricoleur LBCD/08}


All thanks goes to the original releaser!